找回密码
 我要注册

CCTV 《河流与潮汐》2001.德国.自然[MKV][1080p][英语字幕][全1集]

马上注册,下载更多资源!

您需要 登录 才可以下载或查看,没有账号?我要注册

x
河流与潮汐 Rivers and Tides (2001).jpg
7 u9 I5 E9 ~- Y* M; y
! l/ Q# q. f3 C% z7 x6 x$ }◎译  名 河流与潮汐 / 安迪高茲沃斯的艺术人生
# N& g3 H# J* N+ z6 {4 `◎片  名 Rivers and Tides/ Y  {; f# z; Z
◎年  代 2001& S' e3 F; r7 Q" H4 p; ~8 S  X5 B
◎产  地 德国 / 芬兰 / 英国 / 加拿大
! D, K7 x7 O, |9 ^◎类  别 纪录片
0 _2 ^& |4 [" H2 I◎语  言 英语
7 X3 d; p. e% F3 ~# b( I% E- V◎上映日期 2002-03-07
4 A8 \) B+ X0 i- _" z◎IMDb评星  ★★★★★★★★☆☆
1 o: A! \  K( Z  K" `◎IMDb评分  7.9/10 from 2,394 users
3 N% p4 W  L0 v4 U+ v$ C' F( q0 p& Z◎IMDb链接  https://www.imdb.com/title/tt0307385/
. ^& F) w3 _# E◎豆瓣评星 ★★★★✦
: P5 X! S* H0 v5 f0 |5 ?◎豆瓣评分 9.1/10 from 1,086 users  w  z/ X$ c* M# e/ @- \( E
◎豆瓣链接 https://movie.douban.com/subject/1419362/
7 b# |* y7 P6 j$ V3 w◎片  长 90 分钟 / Argentina: 92 分钟(Buenos Aires Festival Internacional de Cine Independiente)
5 M% f# k2 h5 W" Q8 T◎导  演 托马斯·里德尔斯海默 / Thomas Riedelsheimer) N7 L* _8 k  v$ I0 v* ~# U
◎演  员 安迪·高兹沃斯 / Andy Goldsworthy% t6 F; i9 n: F( P) Z* K
◎编  剧 托马斯·里德尔斯海默 / Thomas Riedelsheimer6 x- E  \  b8 G0 m9 n# i- }
◎制  片  人 Trevor Davies Trevor Davies. ~9 \. y' M) L2 k7 y
      Leslie Hills Leslie Hills
$ \5 d' X8 s8 P3 A, Z; r◎音  乐 Fred Frith Fred Frith, m: v2 |% j* Q) w
◎摄  影 托马斯·里德尔斯海默 / Thomas Riedelsheimer
0 T6 Q' q3 |# e( V2 X◎剪  辑 托马斯·里德尔斯海默 / Thomas Riedelsheimer/ d7 v2 e& R; t' W& S8 R8 S
8 D7 ^! x. |) s# m1 c
◎简  介 8 j& V$ ]8 q8 a+ A2 k5 W/ |' }. w

  w- l* x- \+ g7 B! T' u2 ^" w& |) D  IMDB 排名第七位的记录片(目前8.3分)。
2 p; D% ~' [0 f8 i( n  这部纪录片是关于英国艺术家安迪.高兹沃斯(Andy Goldsworthy)的故事。影片一开头,安迪就直截了当的告诉我们,他想要处理的不仅是空间概念中存在的河流形象,同时也想把时间的意涵加入,让河真正在流动,反应出“河流”的本质。实际上在他的艺术作品中,“时间”可以说是是横贯一切作品的主轴,而反应自然表象下的本质则是一贯的主题,所以他处理的题材,不仅止于河流,也扩及到在时间河流(the river of time)影响下的一切。安迪习惯将自己对周遭事物,不论是人、土地或景观的了解,转化成艺术作品。从他取法自然,取材于自然,最后也回归自然的整个创作过程,确实是相当「环境正确」的,是人与环境对话之后具体而美好的呈现。虽然终究是对自然的一种操弄,却是最不「人工」的那一种。其实用文字来描述他的创作是一种不得已的错误形式,毕竟作品本身即不言自明,同时也是难以言喻的。
$ q, }  Z0 n% L. B, M0 s5 O3 s
- F+ |4 |$ n( ]; n8 S

  1.   p0 c6 ^6 q& N
  2. General4 b- W3 M5 x  e, p& n  a
  3. Unique ID                      : 173402325279272384376980799409217191242 (0x827412B49883E2F792507D4CB12DBD4A); a& p' D: s: T" W( _  v
  4. Complete name                  : aaf-riversandtides.1080p.mkv5 D  b- j# m* |# c, \8 F
  5. Format                         : Matroska
    . N' @  i' G0 S8 G" O1 V
  6. Format version                 : Version 22 u( @% l4 x, ^) H
  7. File size                      : 6.56 GiB
      T* K! _( A( Q  g, ?, a
  8. Duration                       : 1 h 34 min0 w# G$ c" H; K" H
  9. Overall bit rate               : 9 911 kb/s
    8 j- a# X1 _8 [1 i9 B  v  m
  10. Encoded date                   : UTC 2011-03-28 06:10:49
    9 r# ]5 U6 w% @3 z) }  D3 h" z
  11. Writing application            : mkvmerge v4.5.0 ('Speed of Light') built on Feb  1 2011 02:10:320 e8 X+ K" g3 @. c8 u& X
  12. Writing library                : libebml v1.2.0 + libmatroska v1.1.0* c' Y; Y, Y1 k+ m/ ?9 j+ q

  13. - a; t; ]9 Q5 O3 p0 m. C
  14. Video
    + F7 h/ o4 V! B
  15. ID                             : 1
    - ?4 K, ]- ~8 C+ w6 D0 w/ @' E- ~3 ^
  16. Format                         : AVC
    - w6 s* W0 U$ m
  17. Format/Info                    : Advanced Video Codec0 K5 ~, N" T! ^8 j! }% b
  18. Format profile                 : High@L4.18 R. C9 g9 s5 w' D" d" ~
  19. Format settings                : CABAC / 4 Ref Frames
    . p1 y* l  P0 u/ j; z& O
  20. Format settings, CABAC         : Yes0 a5 d) Q( M/ P, y4 B% Z, t
  21. Format settings, Reference fra : 4 frames" w1 R+ r+ v4 s& h
  22. Codec ID                       : V_MPEG4/ISO/AVC: @8 j8 \9 J! q! O* y% }
  23. Duration                       : 1 h 34 min
    : W8 [& S! }- h7 B
  24. Bit rate                       : 8 411 kb/s  F; F# E6 N; J0 O! \5 A6 N0 Z9 ~7 |7 ?% V
  25. Width                          : 1 920 pixels
    9 u8 S( h- o! A0 {
  26. Height                         : 1 080 pixels
    4 C: m, E2 }1 w( l# E0 n6 {& C
  27. Display aspect ratio           : 16:9' e9 h$ k' w! V" |
  28. Frame rate mode                : Constant
    ' s0 r& J# E1 |' b
  29. Frame rate                     : 24.000 FPS4 S" V1 }7 ?0 X: W6 D/ [  \
  30. Color space                    : YUV' I3 d/ r( |7 p  C; H
  31. Chroma subsampling             : 4:2:0
    % [7 i# W3 h2 i+ x. J! p- d$ {
  32. Bit depth                      : 8 bits
    , K8 b: m6 e" f. M# q5 M
  33. Scan type                      : Progressive
    8 O/ {, D4 Z8 X- m/ w% s8 e
  34. Bits/(Pixel*Frame)             : 0.1692 _0 c' `8 v* \  P
  35. Stream size                    : 5.43 GiB (83%)
    " A  \8 f6 A: K7 B9 b+ f
  36. Writing library                : x264 core 114 r1924 08d04a4
    * M) K2 r1 ^: J) e$ N" [
  37. Encoding settings              : cabac=1 / ref=4 / deblock=1:0:0 / analyse=0x3:0x133 / me=umh / subme=8 / psy=1 / psy_rd=1.00:0.00 / mixed_ref=1 / me_range=16 / chroma_me=1 / trellis=1 / 8x8dct=1 / cqm=0 / deadzone=21,11 / fast_pskip=0 / chroma_qp_offset=-2 / threads=12 / sliced_threads=0 / nr=0 / decimate=1 / interlaced=0 / constrained_intra=0 / bframes=3 / b_pyramid=2 / b_adapt=1 / b_bias=0 / direct=1 / weightb=1 / open_gop=0 / weightp=2 / keyint=240 / keyint_min=24 / scenecut=40 / intra_refresh=0 / rc_lookahead=40 / rc=2pass / mbtree=1 / bitrate=8411 / ratetol=1.0 / qcomp=0.60 / qpmin=0 / qpmax=69 / qpstep=4 / cplxblur=20.0 / qblur=0.5 / ip_ratio=1.40 / aq=1:1.004 ]. @4 c% x+ S$ D+ N! B$ ]
  38. Language                       : English
    . o" B$ \3 \* B' y2 d; M
  39. Default                        : Yes' e- u: y4 i8 ~3 E) c/ d' I
  40. Forced                         : No
      P9 E4 C4 f% ]  @
  41. Duration_Source                : General_Duration8 f$ |/ O, n& T1 D
  42. - P3 c" U0 @# n. i" v
  43. Audio& W% o( Z5 H3 b0 w# ?" |; a9 ]
  44. ID                             : 2
    , R( m# R3 E+ t0 @& G1 p
  45. Format                         : DTS
    ) p% I6 @! {& X- j- C. u
  46. Format/Info                    : Digital Theater Systems
    : L% [# n) P3 Z1 J3 |! N, t0 {
  47. Codec ID                       : A_DTS- p3 O8 j" d2 C7 q+ `# O
  48. Duration                       : 1 h 34 min
    3 y5 G- T8 g5 w, r
  49. Bit rate mode                  : Constant! j( p' ]) _" [4 h3 P
  50. Bit rate                       : 1 509 kb/s3 l% z) b: z: D3 N' Z
  51. Channel(s)                     : 6 channels
    5 L% H; [; c/ ]
  52. Channel layout                 : C L R Ls Rs LFE- Y' h- R. ?, m
  53. Sampling rate                  : 48.0 kHz
    $ t$ E7 ^% G- O
  54. Frame rate                     : 93.750 FPS (512 SPF)
    - j- d( T# y+ g8 t# p
  55. Bit depth                      : 24 bits9 v. W4 ~3 i6 F' ]6 w% n
  56. Compression mode               : Lossy
    2 R7 g! G- R" l/ b5 I6 e3 N% W
  57. Stream size                    : 1 023 MiB (15%)
    3 G. M( C/ h5 U6 v. q: b
  58. Default                        : Yes
    0 v5 B" t! D) x
  59. Forced                         : No; k0 t& H# g6 r4 x! P7 x
  60. Duration_Source                : General_Duration; c5 Q* {! h8 t3 P! X
复制代码

: [  L! A% Y) m7 @* O0 `
5 Z( N* B) n% n# e9 _2 ~1 d; u$ f: q. o3 C
请点击此处下载

请先注册会员后再进行下载

已注册会员,请先登录后下载

文件名称:《河流与潮汐 Rivers and Tides》 
下载次数:5  文件大小:0 Bytes  售价:30 记录币[记录]
下载权限: 不限 月度VIP会员 以上 [购买VIP会员] [充值记录币]
★ 注意:购买后请务必刷新页面~ ★

7 _. x! A' G8 c$ R/ X& \& e! S/ B
2 G5 Z9 \& t. W1 Y, \* V- V* V7 O- D

下载帮助 - 免责申明1、本主题所有言论和图片纯属会员个人意见,与本论坛立场无关
2、本站所有主题由该帖子作者发表,该帖子作者与第一记录论坛-第1记录论坛-第壹记录论坛享有帖子相关版权
3、其他单位或个人使用、转载或引用本文时必须同时征得该帖子作者和第一记录论坛-第1记录论坛-第壹记录论坛的同意
4、帖子作者须承担一切因本文发表而直接或间接导致的民事或刑事法律责任
5、本帖部分内容转载自其它媒体,但并不代表本站赞同其观点和对其真实性负责
6、如本帖侵犯到任何版权问题,请立即告知本站,本站将及时予与删除并致以最深的歉意
7、第一记录论坛-第1记录论坛-第壹记录论坛管理员和版主有权不事先通知发贴者而删除本文
8、全站统一下载网盘为百度网盘,全站统一解压密码为 www.1jilu.cn

第一记录社区汇集了大量优秀经典纪录片,集纳国内地方台、BBC、国家地理、美国历史频道、NHK等各具特色的高清正版纪录片资源,是国内纪录片资源较为丰富的视频下载网站
您需要登录后才可以回帖 登录 | 我要注册